» » Louis Jordan And His Tympany Five - Messy Bessy

Louis Jordan And His Tympany Five - Messy Bessy mp3 album

Louis Jordan And His Tympany Five - Messy Bessy mp3 album
  • Performer: Louis Jordan And His Tympany Five
  • Title: Messy Bessy
  • Genre: Jazz
  • Country: UK
  • MP3 size: 1154 mb
  • FLAC size 1483 mb
  • Formats AU AUD MPC TTA AIFF ASF MMF

Louis Jordan - Messy Bessy. Artist: Louis Jordan. Album: The Aladdin Records Story, 2011. Louis Jordan and His Tympany Five. The only people who make love all the time are liars.

Louis Jordan & His Tymphany Five ‎– Messy Bessy. Label: Aladdin (8) ‎– none. Format: Vinyl, 7", 45 RPM, Unofficial Release.

Matrix, Runout (Side A): 45-AL-3246-Q. Matrix, Runout (Side B): 45-AL-3246-X.

Go Back Home" PERFORMER "Louis Jordan and his Tympany Five" INDEX 01 36:23:40 TRACK 15 AUDIO TITLE "For You" PERFORMER "Louis Jordan and his Tympany Five" INDEX 01 39:01:12 TRACK 16 AUDIO TITLE "Private Property (No Tresspassing)" PERFORMER "Louis Jordan and his Tympany Five" INDEX 01 41:51:07 TRACK 17 AUDIO TITLE "I'll Die Happy". FILE: Louis Jordan and his Tympany Five - with Louis Armstrong & Ella Fitzgerald. Скачать раздачу по magnet-ссылке · 26. MB.

Louis Jordan & His Tympany Five. Five Guys Named Moe. Прослушать Скачать 03:23. Louis Jordan & His Tympany Five. Every Man to His Own Profession DJ Wuthe am Grammophon. Прослушать Скачать 02:42. Louis Armstrong, Louis Jordan & His Tympany Five. Прослушать Скачать 02:41.

Louis Thomas Jordan (July 8, 1908 – February 4, 1975) was a pioneering American jazz, blues and rhythm & blues musician, songwriter and bandleader who enjoyed his greatest popularity from the late 1930s to the early 1950s. Style:MLA Chicago APA. "Louis Jordan and His Tympany Five Album.

The Complete Aladdin Sessions. EMI Music Distribution. Louis Jordan & His Tympany 5. One Guy Named Louis.

Tracklist

A1 Messy Bessy
A2 Drag Gum Ya Hide Boy
B1 I´ve Seen What'cha Done
B2 Whiskey Do Your Stuff

Other versions

Category Artist Title (Format) Label Category Country Year
EPM 7-66 Louis Jordan And His Tympany Five Messy Bessy ‎(7", EP) Melodisc EPM 7-66 UK Unknown
MP3 albums Related at Louis Jordan And His Tympany Five - Messy Bessy
Contacts | Privacy Policy | DMCA
All rights reserved.
cymru.mosonline.uk © 2016-2019